#TITLE:DearS Opening;
#SUBTITLE:Love Slave;
#ARTIST:UNDER17;
#TITLETRANSLIT:;
#SUBTITLETRANSLIT:;
#ARTISTTRANSLIT:;
#CREDIT:;
#BANNER:DearS_BN.png;
#BACKGROUND:DearS_BG.png;
#LYRICSPATH:;
#CDTITLE:;
#MUSIC:DearS - Love Slave (TV Size).mp3;
#OFFSET:-0.930;
#SAMPLESTART:36.230;
#SAMPLELENGTH:12.000;
#SELECTABLE:YES;
#BPMS:0.000=169.972;
#STOPS:;
#BGCHANGES:0.000=YouTube - DearS All Opening.mpeg=1.000=1=1=0,
99999=-nosongbg-=1.000=0=0=0 // don't automatically add -songbackground-
;
// cache tags:
#FIRSTBEAT:1.000;
#LASTBEAT:282.000;
#SONGFILENAME:songs/Pack anime 1/DearS Opening Love Slave/DearS -- Love Slave (TV Size).sm;
#HASMUSIC:1;
#HASBANNER:1;
#MUSICLENGTH:105.080;
// end cache tags

//---------------dance-single - Basic----------------
#NOTES:
     dance-single:
     Basic:
     Easy:
     6:
     0.366,0.369,0.029,0.095,0.000,256.000,3.000,10.000,0.000,0.000:
0000
1000
0000
0100
,
0000
1000
0000
0100
,
0000
0001
0000
0010
,
1000
0010
0000
1000
,
0000
1000
0000
0100
,
0000
1000
0000
0100
,
1000
0000
0000
0000
,
0000
1000
0000
0000
,
0000
1000
1000
0010
,
1000
1000
1000
1000
,
1000
1000
1000
1000
,
0001
0010
0000
0000
0000
0000
0010
0000
,
1000
1000
1000
1000
,
0001
0000
0010
0000
0100
0010
0001
0000
,
1000
1000
1000
1000
,
0000
0000
0001
0100
0010
0000
0100
0000
,
0001
0100
0010
1000
,
1000
0000
0100
0010
0001
0000
0000
0000
,
0000
0001
1000
0000
0001
0000
0010
0000
,
0001
0100
0010
1000
,
1000
0000
0010
0000
0001
0100
0010
0000
,
1000
0100
0100
0100
,
0110
0000
1000
0000
0020
0000
0030
2000
,
0002
3000
0003
0001
,
1000
0000
0010
0000
0001
0100
0010
0000
,
0002
1000
0003
0001
,
0001
0100
0010
1000
,
1000
0000
0100
0010
0001
0000
0000
0000
,
0000
0001
1000
0000
0001
0000
0010
0000
,
1000
0000
0010
0000
0001
0100
0010
0000
,
0002
0000
1000
0000
0000
0000
0003
0100
,
1000
0010
0100
0010
,
0000
0001
1000
0000
0001
0000
0010
0000
,
1000
1000
1000
1000
,
0001
0001
0001
0001
,
1000
1000
1000
1000
,
1000
0001
1000
0010
,
1000
1000
1000
1000
,
1000
0000
0010
0100
0010
0000
1000
0000
,
0001
0100
0010
1000
,
1000
0010
0000
0000
,
0000
0000
0000
0000
0000
0000
1000
0010
,
0001
1000
0000
0010
,
1000
0100
0010
0100
,
0001
0010
0100
0010
,
0001
0100
0010
0100
,
1000
0010
0002
0010
,
0000
1000
0003
0001
,
1000
1000
1000
1000
,
1000
1000
1000
1000
,
0001
1000
0000
0010
,
0001
0100
0010
1000
,
1000
0000
0010
0100
0010
0000
1000
0000
,
1000
0001
1000
0010
,
1000
1000
1000
1000
,
1000
0100
0100
0100
,
1000
1000
1000
1000
,
0001
0001
1000
0001
,
1000
0100
0100
0100
,
1000
1000
1000
1000
,
1000
1000
1000
1000
,
0001
0001
0001
0001
,
0002
1000
0000
0003
,
0110
0000
1000
0000
0020
0000
0030
2000
,
0001
0000
0010
0000
0100
0010
0001
0000
,
3000
0000
0100
0100
0010
0000
0001
0000
,
0001
0020
0000
1000
,
0000
0000
0030
0010
0100
0000
0001
0000
,
0001
0000
0010
0000
0100
0010
0001
0000
,
0001
0100
0010
1000
,
1001
1000
1000
0000
;

//---------------dance-single - Standard----------------
#NOTES:
     dance-single:
     Standard:
     Medium:
     8:
     0.500,0.470,0.105,0.105,0.000,344.000,11.000,11.000,0.000,1.000:
0000
0000
0001
1000
0000
0000
0100
0000
,
0001
0000
0010
0000
0000
0000
0001
0000
,
0001
0000
0010
0000
0000
0000
0001
0000
,
0000
1000
0001
1000
0000
0000
0010
0000
,
0001
0000
0010
0000
0000
0000
0001
0000
,
0001
0000
0010
0000
0000
0000
0001
0000
,
1000
0000
0000
0000
0000
0000
0010
0000
,
0000
1000
0001
0000
0000
0000
0000
0000
,
0000
0000
1000
0000
1000
0001
1000
0000
,
0001
0000
0001
0001
0001
1000
1000
0000
,
0001
0000
0001
0001
0001
1000
1000
0000
,
0001
1000
0000
0000
1000
0000
1000
0000
,
0001
0000
0001
0001
0001
1000
1000
0000
,
1000
0000
0100
0010
0001
0100
0010
0010
,
0001
0000
0001
0001
0001
1000
1000
0000
,
0000
0000
0011
0000
0100
0000
0010
1000
,
0001
0000
0010
0000
0001
1000
0010
1000
,
1000
0100
0000
1000
0100
0010
0000
0001
,
0001
0000
1010
0000
0001
0000
0100
0001
,
0001
0000
0010
0000
0001
1000
0010
1000
,
1000
0000
0010
0000
0100
0010
1000
1000
,
1000
1000
0001
0000
0001
0000
0001
0000
,
0110
0000
0010
0000
0200
0000
0300
0020
,
2000
0000
0010
0000
3000
0000
1000
0000
,
1000
0000
0010
0000
0100
0010
1000
1000
,
2000
0000
0010
0000
3000
0000
1000
0000
,
0001
0000
0010
0000
0001
1000
0010
1000
,
1000
0100
0000
1000
0100
0010
0000
0001
,
0001
0000
1010
0000
0001
0000
0100
0001
,
1000
0000
0010
0000
0100
0010
1000
1000
,
2000
0000
0100
0000
1000
0000
3000
0000
,
0110
0000
0000
0000
0100
0000
1000
0100
,
0001
0000
1010
0000
0001
0000
0100
0001
,
0001
0000
0001
0001
0001
1000
1000
0000
,
0001
0000
0001
0001
0001
1000
1000
0000
,
1000
0000
1000
1000
1000
0001
0001
0000
,
1000
0000
0100
0000
1000
0010
1000
0100
,
0001
0000
0001
0001
0001
1000
1000
0000
,
1000
0000
0010
1000
0010
0100
0010
0000
,
0001
0000
0010
0000
0001
1000
0010
1000
,
1000
0001
0010
0000
0000
0000
0000
0000
,
0000
0000
0000
0000
0000
0000
1000
0010
,
0001
0000
0100
0000
0010
0000
1000
0000
,
0000
0000
0001
0000
0010
0001
0100
0001
,
1000
0000
0001
0100
0001
0100
0010
0000
,
0001
0000
1000
0100
1000
0100
0010
0000
,
1000
0000
0010
0000
0002
0000
1000
0000
,
2000
0000
0010
0000
3003
0000
1000
0000
,
0001
0000
0001
0001
0001
1000
1000
0000
,
1000
0000
1000
1000
1000
0001
0001
0000
,
0001
0000
0100
0000
0010
0000
1000
0000
,
0001
0000
0010
0000
0001
1000
0010
1000
,
1000
0000
0010
1000
0010
0100
0010
0000
,
1000
0000
0100
0000
1000
0010
1000
0100
,
0001
0000
0001
0001
0001
1000
1000
0000
,
1000
1000
0001
0000
0001
0000
0001
0000
,
0001
0000
0001
0001
0001
1000
1000
0000
,
0000
1000
1000
0000
0010
0100
0010
0000
,
1000
1000
0001
0000
0001
0000
0001
0000
,
0001
0000
0001
0001
0001
1000
1000
0000
,
0001
0000
0001
0001
0001
1000
1000
0000
,
0001
0000
0001
0001
0001
1000
1000
0000
,
2000
0000
0100
0000
1000
0000
3000
0000
,
0110
0000
0010
0000
0200
0000
0300
0020
,
1000
0000
0100
0010
0001
0100
0010
0000
,
0101
0000
1000
1000
0100
1000
0010
0000
,
0011
0000
0200
0000
0010
0000
0100
0000
,
0000
0000
0301
0001
0100
0001
0010
0001
,
1000
0000
0100
0010
0001
0100
0010
0010
,
0001
0000
0010
0000
0001
1000
0010
0000
,
1100
0000
1000
0000
1000
0000
0000
0000
,
0000
0000
0000
0000
0000
0000
0000
0000
,
0000
0000
0000
0000
0000
0000
0000
0000
,;

//---------------dance-single - Heavy----------------
#NOTES:
     dance-single:
     Heavy:
     Hard:
     9:
     0.581,0.537,0.095,0.105,0.000,403.000,10.000,11.000,0.000,2.000:
0000
0000
0001
0100
0000
0000
0001
0000
,
0000
1000
0010
1000
0000
0000
0100
0000
,
0000
1000
0010
1000
0000
0000
0100
0000
,
0000
1000
0001
1000
0000
0000
0001
0000
,
0000
1000
0010
1000
0000
0000
0100
0000
,
0000
0001
0100
0001
0000
0000
0010
0000
,
1000
0000
0000
0000
0000
0000
0100
0000
,
0000
1000
0010
0000
0000
0000
0000
0000
,
0000
0000
0001
0001
0001
0100
0001
0000
,
1000
0010
0010
0010
0010
1000
1000
0000
,
1000
0100
0100
0100
0100
1000
1000
0000
,
0001
0100
0000
0010
0010
0000
0010
0000
,
1000
0010
0010
0010
0010
1000
1000
0000
,
0001
0100
1000
0100
0010
1000
0100
0100
,
1000
0010
0010
0010
0010
1000
1000
0000
,
0000
0000
0011
0000
1000
0010
0100
1000
,
0001
0001
1000
0000
0001
1000
0010
0100
,
0001
1000
0000
0010
1000
0010
0000
1000
,
1000
0000
0110
0000
0001
0100
0001
1000
,
0001
0001
1000
0000
0001
1000
0010
0100
,
1000
0000
0010
1000
0001
0100
0001
0001
,
0001
0001
0010
0000
0010
0001
0001
0000
,
0110
0000
0010
0000
0200
0000
0300
0020
,
0002
0000
0100
0000
0003
0000
0001
1000
,
1000
0000
0010
1000
0001
0100
0001
0001
,
0002
0000
0100
0000
0003
0000
0001
1000
,
0001
0001
1000
0000
0001
1000
0010
0100
,
0001
1000
0000
0010
1000
0010
0000
1000
,
1000
0000
0110
0000
0001
0100
0001
1000
,
1000
0000
0010
1000
0001
0100
0001
0001
,
0002
0000
0100
0000
0001
0000
0003
0000
,
1100
0000
1000
0000
0010
0010
0100
0001
,
1000
0000
0110
0000
0001
0100
0001
1000
,
1000
0010
0010
0010
0010
1000
1000
0000
,
1000
0100
0100
0100
0100
1000
1000
0000
,
1000
0100
0100
0100
0100
1000
1000
0000
,
1000
0000
0001
0010
0100
1000
0001
1000
,
1000
0010
0010
0010
0010
1000
1000
0000
,
0001
1000
0100
1000
0100
1000
0100
0000
,
0001
0001
1000
0000
0001
1000
0010
0100
,
0001
0010
0001
1000
0000
0000
0000
0000
,
0000
0000
0000
0000
0001
0000
0010
0100
,
0001
0000
1000
1000
0100
0000
0010
0000
,
1000
0000
0001
0000
0100
0001
1000
0100
,
0001
0000
0100
0001
0100
0001
0100
0010
,
0001
0000
0100
0001
0100
0001
0100
0010
,
1000
0000
0010
1000
0020
0000
0001
0000
,
0002
0000
0100
0000
0033
0000
0001
1000
,
1000
0010
0010
0010
0010
1000
1000
0000
,
1000
0100
0100
0100
0100
1000
1000
0000
,
0001
0000
1000
1000
0100
0000
0010
0000
,
0001
0001
1000
0000
0001
1000
0010
0100
,
0001
1000
0100
1000
0100
1000
0100
0000
,
1000
0000
0001
0010
0100
1000
0001
1000
,
1000
0010
0010
0010
0010
1000
1000
0000
,
0001
0001
0010
0000
0010
0001
0001
0000
,
1000
0010
0010
0010
0010
1000
1000
0000
,
0001
0100
0100
0001
0100
0001
0100
0000
,
0001
0001
0010
0000
0010
0001
0001
0000
,
1000
0010
0010
0010
0010
1000
1000
0000
,
1000
0100
0100
0100
0100
1000
1000
0000
,
0001
0010
0010
0010
0010
0001
0001
0000
,
0002
0000
0100
0000
0001
0000
0003
0000
,
0110
0000
0010
0000
0200
0000
0300
0020
,
0001
0100
1000
0100
0010
1000
0100
0000
,
1010
0000
0010
0010
0100
0010
0100
0000
,
1010
0000
0200
0000
0100
0000
0100
0000
,
0000
0000
0300
0100
0010
0100
0010
1000
,
0001
0100
1000
0100
0010
1000
0100
0100
,
0001
0001
1000
0000
0001
1000
0010
0000
,
1010
0000
0100
1000
1000
0000
0000
0000
,
0000
0000
0000
0000
0000
0000
0000
0000
,
0000
0000
0000
0000
0000
0000
0000
0000
,
;
